Skip to main content

Dopapod Live at Paradise Rock Club on 2013-02-22

by Dopapod



01 Intro
02 STADA
03 Black and White
04 banter
05 Give It A Name
06 Sonic * >
07 Like A Ball
08 Present Ghosts
09 The Chocolate Bass solo >
10 8 Years Ended^ >
11 PLSS >
12 Bubblebrain
13 Vol. 3 #86
14 encore break

Encore:
15 FABA

*contained MGMT tease
^contained Dueling Banjos teases
contained elements of French Bowling


Collection Dopapod
Band/Artist Dopapod
Venue Paradise Rock Club
Location Boston, MA

Source Schoeps MK41/MK22>KC5>CMC6>Sonosax SX-R4 & SB>SX-R4
Lineage WAV>USB>Macbook Pro>Audacity(mixing)>Wave Editor(tracking,fades,resample(izotope)/dither(mbit+)to 16 bit/44.1k)>XAct(FLAC 8,ffp,fix sbe)
Taped by Andy Murray
Transferred by Andy Murray

Notes

Dopapod
2012-02-22
Paradise Rock Club
Boston, MA

Mics were centered at the soundboard upstairs hung off the shelf

MK22s were 21cm,110 degrees DFC
MK41s were DIN DFC

Source: Schoeps MK22/MK41>KC5>CMC6>Sonosax SX-R4(24bit/96khz) & Sound board>SX-R4

Lineage: WAV>USB>Macbook Pro>Audacity(mixing)>Wave Editor(tracking,fades,resample(izotope)/dither(mbit+)to 16 bit/44.1k)>XAct(FLAC 8,ffp,fix sbe)

Taped by: Andy Murray
Transferred by: Andy Murray

Ghosts Of Jupiter and The Jauntee also played

1 Set

length expanded size cdr WAVE problems fmt ratio filename
4:35.18 48552380 B --- -- ----- wav 1.0000 dopapod2013-02-22_mk41mk22sbmix_1644_d1t01.wav
10:27.38 110692220 B --- -- ----- wav 1.0000 dopapod2013-02-22_mk41mk22sbmix_1644_d1t02.wav
12:18.45 130289084 B --- -- ----- wav 1.0000 dopapod2013-02-22_mk41mk22sbmix_1644_d1t03.wav
1:28.71 15690236 B --- -- ----- wav 1.0000 dopapod2013-02-22_mk41mk22sbmix_1644_d1t04.wav
9:43.03 102848300 B --- -- ----- wav 1.0000 dopapod2013-02-22_mk41mk22sbmix_1644_d1t05.wav
12:13.23 129355340 B --- -- ----- wav 1.0000 dopapod2013-02-22_mk41mk22sbmix_1644_d1t06.wav
9:08.37 96754268 B --- -- ----- wav 1.0000 dopapod2013-02-22_mk41mk22sbmix_1644_d1t07.wav
8:22.48 88665740 B --- -- ----- wav 1.0000 dopapod2013-02-22_mk41mk22sbmix_1644_d1t08.wav
2:33.49 27104492 B --- -- ----- wav 1.0000 dopapod2013-02-22_mk41mk22sbmix_1644_d1t09.wav
9:36.24 101662892 B --- -- ----- wav 1.0000 dopapod2013-02-22_mk41mk22sbmix_1644_d1t10.wav
5:54.52 62567948 B --- -- ----- wav 1.0000 dopapod2013-02-22_mk41mk22sbmix_1644_d1t11.wav
10:51.66 114991676 B --- -- ----- wav 1.0000 dopapod2013-02-22_mk41mk22sbmix_1644_d1t12.wav
12:36.18 133400780 B --- -- ----- wav 1.0000 dopapod2013-02-22_mk41mk22sbmix_1644_d1t13.wav
2:56.65 31199324 B --- -- ----- wav 1.0000 dopapod2013-02-22_mk41mk22sbmix_1644_d1t14.wav
15:03.30 159359804 B --- -- ----- wav 1.0000 dopapod2013-02-22_mk41mk22sbmix_1644_d1t15.wav
127:50.62 1353134484 B 1.0000 (15 files)

Reviews

There are no reviews yet. Be the first one to write a review.
DOWNLOAD OPTIONS
In Collection
Dopapod
In Collection
Live Music Archive
Uploaded by
andyjah
on 2/25/2013
Views
124
PEOPLE ALSO FOUND
Dopapod
by Dopapod
124
0
0
Source: Schoeps MK4>KC5>CMC6>Sonosax SX-M2>Apogee Mini-me(aes out,24bit/96khz)>COAX>Edirol R-44 & Soundboard>R-44
Dopapod
by Dopapod
75
0
0
Source: Schoeps MK4>KC5>CMC6>Sonosax SX-R4(24bit/96khz)
Dopapod
by Dopapod
284
0
0
Source: Schoeps MK22>KC5>CMC6>Sonosax SX-M2>Apogee Mini-me(aes out,24bit/96khz)>COAX>Edirol R-44 + Soundboard>R-44
Dopapod
by Dopapod
102
0
0
Source: Schoeps MK4>KC5>CMC6>Sonosax SX-M2>Apogee Mini-me(aes out,24bit/96khz)>COAX>Edirol R-44
Dopapod
by Dopapod
61
0
0
Source: Schoeps MK4>KC5>CMC6>Sonosax SX-R4(24bit/96khz) & Soundboard>R-4
Dopapod
by Dopapod
190
0
0
Source: Microtech Gefell M200's>(DIN)Sound Devices MP-2>Edirol R-44(24/96)
Dopapod
by Dopapod
124
0
0
Source: Schoeps MK41/MK22>KC5>CMC6>Sonosax SX-R4 & SB>SX-R4
Dopapod
by Dopapod
106
0
0
Source: Schoeps MK4>KC5>CMC6>Sonosax SX-M2>Apogee Mini-me(aes out,24bit/96khz)>COAX>Edirol R-44
Dopapod
by Dopapod
74
0
0
Source: Schoeps MK22>KC5>CMC6>Sonosax SX-M2>Apogee Mini-me(aes out,24bit/96khz)>COAX>Edirol R-44 + Soundboard>R-44
Dopapod
by Dopapod
49
0
0
Source: Schoeps MK22/MK4/sb>Sonosax SX-R4